#TITLE:哥哥的心;
#SUBTITLE:;
#ARTIST:Ez-Life;
#TITLETRANSLIT:;
#SUBTITLETRANSLIT:;
#ARTISTTRANSLIT:;
#CREDIT:;
#BANNER:_logo.jpg;
#BACKGROUND:_bg.jpg;
#LYRICSPATH:;
#CDTITLE:Lan.png;
#MUSIC:.mp3;
#OFFSET:-0.020;
#SAMPLESTART:100.000;
#SAMPLELENGTH:12.000;
#SELECTABLE:YES;
#BPMS:0.000=124.000;
#STOPS:;
#BGCHANGES:;
// cache tags:
#FIRSTBEAT:7.000;
#LASTBEAT:298.000;
#SONGFILENAME:Songs/Super Dancer Online//.sm;
#HASMUSIC:1;
#HASBANNER:1;
#MUSICLENGTH:145.571;
// end cache tags

//---------------dance-single - sky----------------
#NOTES:
     dance-single:
     sky:
     Hard:
     9:
     0.706,0.665,1.000,0.151,0.041,460.000,230.000,22.000,0.000,17.000:

0000
0000
0000
0000
,
0000
0000
0000
0100
,
1002
0000
0010
0100
0000
1000
0000
0100
,
0000
0000
0010
0000
0000
0000
1000
0003
0100
0000
0000
0000
1010
0000
0000
0000
,
0201
0000
0010
1000
0000
0010
0000
0001
,
0000
0000
1000
0000
0000
0000
0010
0300
1000
0000
0000
0000
0011
0000
0000
0000
,
1020
0000
0100
0001
0000
1000
0000
0100
,
0000
0000
1000
0000
0000
0000
0001
0030
0000
0000
0100
0000
0000
0000
0010
0000
,
2000
0000
0000
0000
0000
0000
0000
0000
0000
0000
0000
0000
0000
0000
0000
3000
,
0010
0000
0100
0000
1000
0000
0100
0000
0010
0000
0001
0010
0100
0000
0010
0000
,
1101
0000
0101
0011
0000
1010
0101
0010
,
1100
0010
0100
1001
0010
1100
0101
0000
,
0011
0000
1010
0110
0000
1001
0010
0100
,
1010
0100
0000
0000
0011
0000
1100
0000
0010
0000
0100
0000
0011
0000
0000
0000
,
0101
0000
1010
1100
0000
0101
0110
0000
,
1001
0100
0011
1100
0000
0101
0110
0001
,
1010
0000
0100
0001
0000
0010
1000
0000
,
0101
0000
0011
0000
1010
0000
0100
0000
0011
0000
0000
0000
0100
0000
0010
0100
,
1001
0010
1100
0101
0010
1001
0110
0000
,
0101
0010
1100
0101
0010
0101
1010
0000
,
0101
0010
1100
1010
0100
0011
0110
0000
,
0011
0100
1010
1100
0010
0101
0011
0000
,
1001
0100
0011
1010
0100
0011
0101
0000
,
0011
0100
1010
0110
0001
0110
0101
0000
,
0011
0100
1010
0110
1000
0011
0101
0000
,
1001
0110
0101
0010
0100
1010
1100
0000
,
0101
0000
0011
1010
0000
0101
0010
0100
,
1001
0010
1100
0101
0010
0101
1010
0000
,
0101
0000
0011
1010
0000
0110
1001
0010
,
1100
0001
0110
0011
0100
1001
0110
0000
,
0101
0000
0011
1100
0000
0110
1001
0010
,
0101
0010
1100
1010
0000
0101
0011
0200
,
0010
0000
0000
0000
1000
0000
0001
0000
0000
0000
0010
0000
0001
0300
0000
0000
,
0011
1010
0110
0001
1000
0101
0110
0000
,
2011
0000
0100
0010
0000
0001
0100
0000
,
0010
0000
0000
0000
0100
0000
0001
3000
0010
0000
0100
0000
0011
0000
0000
0000
,
0112
0000
1000
0010
0000
0100
0010
0000
,
1000
0000
0000
0000
0100
0000
1000
0003
0010
0000
0100
0000
1001
0000
0000
0000
,
1021
0000
0100
0001
0000
1000
0100
0000
,
0001
0000
0000
0000
0100
0000
1000
0030
0001
0000
0100
0000
2010
0000
0000
0000
,
0101
0000
0000
0000
0010
0000
0001
0000
0000
0000
0100
0000
0001
0000
0000
3000
,
0101
0000
0010
0000
1001
0000
0100
0000
1010
0000
0001
0010
0100
0000
0010
0000
,
1101
0000
0011
1010
0000
0101
0011
0100
,
1010
0100
0011
1010
0001
0110
0101
0000
,
1001
0000
0101
1010
0000
0110
0101
0010
,
1100
0001
0110
1010
0100
0011
0110
0000
,
0101
0000
0011
1010
0000
0110
1001
0010
,
1200
0000
0000
0000
0001
0000
1020
0300
0000
0000
0001
0000
1100
0030
0000
0000
,
0102
0000
0000
0000
0010
0000
1000
0000
0000
0000
0100
0000
0010
0000
1000
0003
,
0110
0000
0001
0000
1010
0000
0100
0000
0011
0000
0100
0010
1000
0000
0100
0000
,
2010
0000
0100
0010
0001
0000
0010
0000
0100
0000
0001
0000
0010
0000
0001
0000
,
0100
0000
0010
0100
0001
0000
0010
3000
0101
0000
0010
0000
1100
0000
0010
0000
,
0201
0000
1000
0010
0001
0000
0010
0000
0001
0000
1000
0000
0010
0000
1000
0000
,
0010
0000
1000
0010
0001
0000
0010
0300
1001
0000
0101
0000
0011
0000
0100
0000
,
1012
0000
0110
1000
0000
1010
0100
0000
,
1100
0000
0000
0000
0010
0000
0100
0003
1010
0000
0100
0000
0021
0000
0000
0000
,
1100
0000
0000
0000
0001
0000
0100
0000
0000
0000
1000
0000
0001
0000
0000
0030
,
0101
0000
0000
0000
0000
0000
0000
0000
0010
0000
1000
0100
0010
0000
0001
0000
,
1010
0000
0110
0101
0000
0011
1010
0100
,
1001
0010
1100
0101
0010
1100
0011
0000
,
0101
0000
1010
0110
0000
0011
0101
0010
,
1001
0100
0011
1100
0010
0101
0011
0000
,
1010
0000
0101
0011
0000
1010
1100
0010
,
0102
0000
0000
0000
1000
0000
0120
0003
0000
0000
1000
0000
0101
0030
0000
0000
,
2011
0000
0000
0000
0100
0000
0001
0000
0000
0000
0010
0000
0100
0000
0001
3000
,
0110
0000
0001
0000
1000
0000
0010
0000
0100
0000
0001
0000
0010
0000
0100
0010
,
1001
0000
1010
0110
0000
0101
0010
1000
,
0011
0100
1010
0101
0010
1100
0011
0000
,
1001
0000
0011
1100
0000
0110
0101
0010
,
1100
0001
0110
0101
0010
1100
0101
0000
,
0011
0000
1010
0110
0000
1001
1100
0010
,
0101
0010
1001
1100
0000
0011
0101
0020
,
1100
0000
0000
0000
0001
0000
0100
0000
0000
0000
1000
0000
0100
0030
0001
0000
,
1100
0000
0010
0000
0100
0000
0001
0000
0010
0000
0001
0000
0100
0000
0010
0100
,
2002
0000
3003
0000
;
